Jumanji 1995 x264 720p Esub BluRay Dual Audio English Hindi GOPIS...

seeders: 10
leechers: 3
updated:
Added by PENDUDESI in Other


ᕦ( ▨̅ ͜▨̅ )ᕥ SPECIAL DEAL - OFFER ᕦ( ▨̅ ͜▨̅ )ᕥ
strongly advises you to use Nord while downloading torrents.
Nord is the safest on the market, and the fastest as well.
No IP Log is saved using Nord, avoid other providers and choose the safest one.
Click here and buy Nord it's on rebates today!
We were able to verify your IP: 35.175.113.29, country: United States and you are near by: Ashburn.
If we can do that, others can too, protect your privacy with Nord.
is trying the best for you!
ᕦ( ▨̅ ͜▨̅ )ᕥ SPECIAL DEAL - OFFER ᕦ( ▨̅ ͜▨̅ )ᕥ


Description

https://www.gopisahi.pw/ 

 

Jumanji 1995 x264 720p Esub BluRay Dual Audio English Hindi GOPISAHI

Format : Matroska
Format version : Version 4 / Version 2
File size : 918 MiB
Duration : 1 h 44 min
Overall bit rate : 1 233 kb/s
Movie name : JUMANJI 1995 GOPISAHI

Video
Format : AVC
Format/Info : Advanced Video Codec
Codec ID : V_MPEG4/ISO/AVC
Duration : 1 h 44 min
Bit rate : 899 kb/s
Width : 1 280 pixels
Height : 694 pixels
Display aspect ratio : 1.85:1
Frame rate mode : Constant
Frame rate : 23.976 (24000/1001) FPS
Color space : YUV
Chroma subsampling : 4:2:0
Bit depth : 8 bits
Scan type : Progressive
Bits/(Pixel*Frame) : 0.042
Stream size : 669 MiB (73%)
Title : GOPISAHI
Writing library : x264 core 157 r2935 545de2f

Audio #1
Format : AAC
Duration : 1 h 44 min
Bit rate : 96.0 kb/s
Channel(s) : 2 channels
Channel positions : Front: L R
Sampling rate : 48.0 kHz
Frame rate : 46.875 FPS (1024 SPF)
Compression mode : Lossy
Delay relative to video : -21 ms
Stream size : 71.9 MiB (8%)
Title : GOPISAHI
Language : Hindi

Audio #2
Format : AAC
Duration : 1 h 44 min
Bit rate : 192 kb/s
Channel(s) : 6 channels
Channel positions : Front: L C R, Side: C, Back: L R
Sampling rate : 48.0 kHz
Frame rate : 46.875 FPS (1024 SPF)
Compression mode : Lossy
Delay relative to video : -21 ms
Stream size : 143 MiB (16%)
Title : GOPISAHI
Language : English

Text #1
Format : PGS
Language : English

Text #2
Format : PGS
Language : English

Text #3
Format : PGS
Language : English
 
 
 

Sharing Widget


Download torrent
Size: 917.8 MB
seeders:10
leechers:3
Jumanji 1995 x264 720p Esub BluRay Dual Audio English Hindi GOPIS... - (962383052 Bytes)



To share this torrent use the code below and insert it into comments, status messages, forum posts or your signature.

Torrent: Jumanji 1995 x264 720p Esub BluRay Dual Audio English Hindi GOPIS...

Trackers

tracker name
udp://tracker.coppersurfer.tk:6969/announce
http://tracker.internetwarriors.net:1337/announce
udp://tracker.opentrackr.org:1337/announce
udp://9.rarbg.to:2710/announce
udp://exodus.desync.com:6969/announce
udp://explodie.org:6969/announce
udp://tracker1.itzmx.com:8080/announce
udp://ipv4.tracker.harry.lu:80/announce
udp://denis.stalker.upeer.me:6969/announce
udp://tracker.torrent.eu.org:451/announce
udp://tracker.tiny-vps.com:6969/announce
udp://open.demonii.si:1337/announce
udp://tracker.port443.xyz:6969/announce
udp://thetracker.org:80/announce
udp://tracker.zer0day.to:1337/announce
udp://tracker.leechers-paradise.org:6969/announce
udp://coppersurfer.tk:6969/announce
µTorrent compatible trackers list

Locations

name
KickassTorrents
Torrent hash: 5D098690C6227965C31C700CDD35DA7B855284BD

ᕦ( ▨̅ ͜▨̅ )ᕥ SPECIAL DEAL - OFFER ᕦ( ▨̅ ͜▨̅ )ᕥ
strongly advises you to use Nord while downloading torrents.
Nord is the safest on the market, and the fastest as well.
No IP Log is saved using Nord, avoid other providers and choose the safest one.
Click here and buy Nord it's on rebates today!
We were able to verify your IP: 35.175.113.29, country: United States and you are near by: Ashburn.
If we can do that, others can too, protect your privacy with Nord.
is trying the best for you!
ᕦ( ▨̅ ͜▨̅ )ᕥ SPECIAL DEAL - OFFER ᕦ( ▨̅ ͜▨̅ )ᕥ

All Comments

*comments box temporarily disabled*
Report a bug