Jumanji Welcome to the Jungle OPEN MATTE (2017) KK650

seeders: 6
leechers: 2
updated:
Added by themagicman in Other


ᕦ( ▨̅ ͜▨̅ )ᕥ SPECIAL DEAL - OFFER ᕦ( ▨̅ ͜▨̅ )ᕥ
strongly advises you to use Nord while downloading torrents.
Nord is the safest on the market, and the fastest as well.
No IP Log is saved using Nord, avoid other providers and choose the safest one.
Click here and buy Nord it's on rebates today!
We were able to verify your IP: 35.175.113.29, country: United States and you are near by: Ashburn.
If we can do that, others can too, protect your privacy with Nord.
is trying the best for you!
ᕦ( ▨̅ ͜▨̅ )ᕥ SPECIAL DEAL - OFFER ᕦ( ▨̅ ͜▨̅ )ᕥ


Description

Blu-ray 1: 

 

Open Matte 1: 

 

Blu-ray 2: 

 

Open Matte 2: 

 

Blu-ray 3: 

 

Open Matte 3: 

 

Video
ID : 1
Format : AVC
Format/Info : Advanced Video Codec
Format profile : [email protected] 
Format settings, CABAC : Yes
Format settings, RefFrames : 8 frames
Codec ID : avc1
Codec ID/Info : Advanced Video Coding
Duration : 1 h 59 min
Bit rate mode : Variable
Bit rate : 2 181 kb/s
Maximum bit rate : 40.0 Mb/s
Width : 1 088 pixels
Height  : 612 pixels
Display aspect ratio : 16:9
Frame rate mode : Constant
Frame rate : 23.976 (24000/1001) FPS
Color space : YUV
Chroma subsampling : 4:2:0
Bit depth : 8 bits
Scan type : Progressive
Bits/(Pixel*Frame) : 0.137
Stream size : 1.81 GiB (82%)
Title : jumanji.264

Audio
ID : 2
Format : AAC
Format/Info : Advanced Audio Codec
Format profile : LC
Codec ID : 40
Duration : 1 h 59 min
Bit rate mode : Variable
Bit rate : 463 kb/s
Maximum bit rate : 518 kb/s
Channel(s) : 2 channels
Channel(s)_Original : 6 channels
Channel positions : Front: L C R, Side: L R, LFE
Sampling rate : 48.0 kHz
Frame rate : 46.875 FPS (1024 SPF)
Compression mode : Lossy
Stream size : 394 MiB (17%)
Title : jumanji.aac

Sharing Widget


Download torrent
Size: 2.2 GB
seeders:6
leechers:2
Jumanji Welcome to the Jungle OPEN MATTE (2017) KK650 - (2362232012 Bytes)



To share this torrent use the code below and insert it into comments, status messages, forum posts or your signature.

Torrent: Jumanji Welcome to the Jungle OPEN MATTE (2017) KK650

Trackers

tracker name
udp://eddie4.nl:6969/announce
udp://tracker.coppersurfer.tk:6969/announce
udp://tracker.opentrackr.org:1337/announce
udp://tracker.leechers-paradise.org:6969/announce
udp://tracker.zer0day.to:1337/announce
http://tracker3.itzmx.com:8080/announce
http://182.176.139.129:6969/announce
http://www.opentrackr.org/announce
udp://mgtracker.org:2710/announce
udp://tracker.zer0day.to:1337/announce
udp://tracker.leechers-paradise.org:6969/announce
udp://coppersurfer.tk:6969/announce
µTorrent compatible trackers list

Locations

name
KickassTorrents
Torrent hash: 84CFDC5824F64426C8D0444A2F323AF556EA2150

ᕦ( ▨̅ ͜▨̅ )ᕥ SPECIAL DEAL - OFFER ᕦ( ▨̅ ͜▨̅ )ᕥ
strongly advises you to use Nord while downloading torrents.
Nord is the safest on the market, and the fastest as well.
No IP Log is saved using Nord, avoid other providers and choose the safest one.
Click here and buy Nord it's on rebates today!
We were able to verify your IP: 35.175.113.29, country: United States and you are near by: Ashburn.
If we can do that, others can too, protect your privacy with Nord.
is trying the best for you!
ᕦ( ▨̅ ͜▨̅ )ᕥ SPECIAL DEAL - OFFER ᕦ( ▨̅ ͜▨̅ )ᕥ

All Comments

*comments box temporarily disabled*
Report a bug