Queen of the South Season 4. revittony

seeders: 49
leechers: 44
updated:
Added by revittony in Other


ᕦ( ▨̅ ͜▨̅ )ᕥ SPECIAL DEAL - OFFER ᕦ( ▨̅ ͜▨̅ )ᕥ
strongly advises you to use Nord while downloading torrents.
Nord is the safest on the market, and the fastest as well.
No IP Log is saved using Nord, avoid other providers and choose the safest one.
Click here and buy Nord it's on rebates today!
We were able to verify your IP: 3.233.215.231, country: United States.
If we can do that, others can too, protect your privacy with Nord.
is trying the best for you!
ᕦ( ▨̅ ͜▨̅ )ᕥ SPECIAL DEAL - OFFER ᕦ( ▨̅ ͜▨̅ )ᕥ


Queen of the South Season 4. revittony Size: 4.8 GB (5153960755 Bytes)

Description

https://www.imdb.com/title/tt1064899



Format : MPEG-4 
Format profile : Base Media 
Codec ID : isom (isom/iso2/avc1/mp41) 
Overall bit rate : 1 350 kb/s 
Encoded date : UTC 2019-06-28 14:10:26 
Tagged date : UTC 2019-06-28 14:10:26 
Writing application : Lavf58.20.100 

Video 
ID : 1 
Format : AVC 
Format/Info : Advanced Video Codec 
Format profile : [email protected] 
Format settings : CABAC / 5 Ref Frames 
Format settings, CABAC : Yes 
Format settings, Reference frames : 5 frames 
Codec ID : avc1 
Codec ID/Info : Advanced Video Coding 
Duration : 44 min 13 s 
Bit rate : 1 100 kb/s 
Width : 720 pixels 
Height : 400 pixels 
Display aspect ratio : 16:9 
Frame rate mode : Constant 
Frame rate : 23.976 (24000/1001) FPS 
Color space : YUV 
Chroma subsampling : 4:2:0 
Bit depth : 8 bits 
Scan type : Progressive 
Bits/(Pixel*Frame) : 0.159 
Stream size : 344 MiB (81%) 
Writing library : x264 core 152 r2851M ba24899 
Encoded date : UTC 2019-06-28 14:10:26 
Tagged date : UTC 2019-06-28 14:10:26 
Codec configuration box : avcC 

Audio 
ID : 2 
Format : AAC LC 
Format/Info : Advanced Audio Codec Low Complexity 
Codec ID : mp4a-40-2 
Duration : 44 min 13 s 
Bit rate mode : Constant 
Bit rate : 256 kb/s 
Channel(s) : 2 channels 
Channel layout : L R 
Sampling rate : 48.0 kHz 
Frame rate : 46.875 FPS (1024 SPF) 
Compression mode : Lossy 
Stream size : 81.0 MiB (19%) 
Language : English 
Default : Yes 
Alternate group : 1 
Encoded date : UTC 2019-06-28 14:10:26 
Tagged date : UTC 2019-06-28 14:10:26 


Sharing Widget


Download torrent
Size: 4.8 GB
seeders:49
leechers:44
Queen of the South Season 4. revittony - (5153960755 Bytes)



To share this torrent use the code below and insert it into comments, status messages, forum posts or your signature.

Torrent: Queen of the South Season 4. revittony

Trackers

tracker name
udp://tracker.coppersurfer.tk:6969/announce
udp://tracker.tiny-vps.com:6969/announce
udp://tracker.opentrackr.org:1337/announce
http://tracker.nwps.ws:6969/announce
http://t.nyaatracker.com:80/announce
udp://tracker.pirateparty.gr:6969/announce
udp://public.popcorn-tracker.org:6969/announce
http://bigfoot1942.sektori.org:6969/announce
udp://open.stealth.si:80/announce
udp://9.rarbg.to:2710/announce
udp://9.rarbg.me:2790/announce
http://tracker.nwps.ws:6969/announce
udp://ipv4.tracker.harry.lu:80/announce
udp://tracker.zer0day.to:1337/announce
udp://tracker.leechers-paradise.org:6969/announce
udp://coppersurfer.tk:6969/announce
µTorrent compatible trackers list

Locations

name
KickassTorrents
Torrent hash: AAD5FCF4450B1C07A50103A9CD25CE6DD6CC293F

ᕦ( ▨̅ ͜▨̅ )ᕥ SPECIAL DEAL - OFFER ᕦ( ▨̅ ͜▨̅ )ᕥ
strongly advises you to use Nord while downloading torrents.
Nord is the safest on the market, and the fastest as well.
No IP Log is saved using Nord, avoid other providers and choose the safest one.
Click here and buy Nord it's on rebates today!
We were able to verify your IP: 3.233.215.231, country: United States.
If we can do that, others can too, protect your privacy with Nord.
is trying the best for you!
ᕦ( ▨̅ ͜▨̅ )ᕥ SPECIAL DEAL - OFFER ᕦ( ▨̅ ͜▨̅ )ᕥ

All Comments

*comments box temporarily disabled*
Report a bug